osu file format v14

[General]
AudioFilename: Wiosna.mp3
AudioLeadIn: 1500
PreviewTime: 1856
Countdown: 0
SampleSet: Soft
StackLeniency: 0.7
Mode: 3
LetterboxInBreaks: 0
WidescreenStoryboard: 0

[Editor]
Bookmarks: 18550,60550
DistanceSpacing: 1.2
BeatDivisor: 4
GridSize: 4
TimelineZoom: 1.3

[Metadata]
Title:Wiosna
TitleUnicode:Wiosna
Artist:NicolArmarfi
ArtistUnicode:NicolArmarfi
Creator:Krfawy
Version:Kami's Lv. 4 Painful
Source:かたわ少女
Tags:Katawa Shoujo Enigmatic Box of Sound Four Leaf Studios piano title bgm background music -Kamikaze- Nozhomi - Magic Bomb -
BeatmapID:648017
BeatmapSetID:285397

[Difficulty]
HPDrainRate:8
CircleSize:8
OverallDifficulty:8
ApproachRate:6
SliderMultiplier:2
SliderTickRate:1

[Events]
//Background and Video events
0,0,"Wiosna_BG_8K Lv. 4.jpg",0,0
//Break Periods
//Storyboard Layer 0 (Background)
//Storyboard Layer 1 (Fail)
//Storyboard Layer 2 (Pass)
//Storyboard Layer 3 (Foreground)
//Storyboard Sound Samples

[TimingPoints]
2044,750,4,2,1,27,1,0
12534,923.076923076923,4,2,1,27,1,0
12534,-81.3008130081301,4,2,1,27,0,0
13294,750,4,2,1,27,1,0
14044,750,4,2,1,27,1,0
17044,-100,4,2,1,18,0,0
23044,-100,4,2,1,25,0,0
66764,1000,4,2,1,7,1,0
66764,-75.187969924812,4,2,1,7,0,0
68764,-75.187969924812,4,2,1,5,0,0

[Colours]
Combo1 : 184,149,255
Combo2 : 140,210,138
Combo3 : 238,168,217

[HitObjects]
32,192,2044,5,2,0:0:0:0:
224,192,2044,1,0,0:0:0:0:
352,192,2044,1,0,0:0:0:0:
32,192,3544,1,0,0:0:0:0:
288,192,3544,1,0,0:0:0:0:
480,192,3544,1,2,0:0:0:0:
416,192,3919,1,0,0:0:0:0:
352,192,4294,1,0,0:0:0:0:
224,192,4669,1,2,0:0:0:0:
288,192,5044,1,2,0:0:0:0:
96,192,5044,1,0,0:0:0:0:
480,192,5794,1,2,0:0:0:0:
224,192,6544,1,2,0:0:0:0:
32,192,6544,1,0,0:0:0:0:
288,192,6919,1,0,0:0:0:0:
416,192,7294,1,2,0:0:0:0:
416,192,7669,1,2,0:0:0:0:
32,192,8044,1,2,0:0:0:0:
480,192,8044,1,0,0:0:0:0:
160,192,8044,1,0,0:0:0:0:
416,192,8419,1,0,0:0:0:0:
224,192,8794,1,2,0:0:0:0:
96,192,9544,1,0,0:0:0:0:
32,192,9544,1,0,0:0:0:0:
480,192,9919,1,2,0:0:0:0:
416,192,10294,1,2,0:0:0:0:
352,192,10669,1,0,0:0:0:0:
160,192,11044,1,0,0:0:0:0:
32,192,11044,1,0,0:0:0:0:
288,192,11044,1,2,0:0:0:0:
224,192,11794,1,0,0:0:0:0:
288,192,12534,1,2,0:0:0:0:
352,192,12610,1,0,0:0:0:0:
288,192,12687,1,0,0:0:0:0:
160,192,12764,1,0,0:0:0:0:
288,192,12841,1,0,0:0:0:0:
480,192,12918,1,2,0:0:0:0:
416,192,13294,1,2,0:0:0:0:
224,192,13669,1,0,0:0:0:0:
352,192,14044,1,0,0:0:0:0:
160,192,14044,1,2,0:0:0:0:
96,192,14044,1,0,0:0:0:0:
96,192,15544,1,2,0:0:0:0:
32,192,15544,1,0,0:0:0:0:
288,192,15544,1,0,0:0:0:0:
224,192,16294,1,0,0:0:0:0:
352,192,16669,1,0,0:0:0:0:
352,192,17044,1,2,0:0:0:0:
416,192,17044,1,0,0:0:0:0:
32,192,17044,1,0,0:0:0:0:
160,192,17419,1,0,0:0:0:0:
416,192,17794,1,0,0:0:0:0:
352,192,18169,1,0,0:0:0:0:
480,192,18544,1,2,0:0:0:0:
416,192,18919,1,0,0:0:0:0:
352,192,19294,1,0,0:0:0:0:
224,192,19669,1,0,0:0:0:0:
416,192,20044,1,2,0:0:0:0:
32,192,20044,1,0,0:0:0:0:
160,192,20419,1,0,0:0:0:0:
416,192,20794,1,0,0:0:0:0:
352,192,21169,1,0,0:0:0:0:
480,192,21544,1,2,0:0:0:0:
416,192,21919,1,0,0:0:0:0:
352,192,22294,1,0,0:0:0:0:
224,192,22669,1,0,0:0:0:0:
416,192,23044,1,0,0:0:0:0:
96,192,23044,1,0,0:0:0:0:
32,192,23044,1,2,0:0:0:0:
224,192,23419,1,0,0:0:0:0:
160,192,23606,1,2,0:0:0:0:
416,192,23794,1,0,0:0:0:0:
352,192,24169,1,2,0:0:0:0:
288,192,24169,1,0,0:0:0:0:
480,192,24544,1,0,0:0:0:0:
416,192,24544,1,2,0:0:0:0:
416,192,24919,1,0,0:0:0:0:
352,192,25294,1,0,0:0:0:0:
224,192,25669,1,0,0:0:0:0:
32,192,26044,1,2,0:0:0:0:
416,192,26044,1,0,0:0:0:0:
160,192,26419,1,0,0:0:0:0:
416,192,26794,1,0,0:0:0:0:
352,192,27169,1,0,0:0:0:0:
480,192,27544,1,0,0:0:0:0:
416,192,27919,1,0,0:0:0:0:
480,192,27919,1,2,0:0:0:0:
352,192,28294,1,0,0:0:0:0:
416,192,28294,1,2,0:0:0:0:
224,192,28669,1,0,0:0:0:0:
288,192,28669,1,0,0:0:0:0:
416,192,29044,1,0,0:0:0:0:
32,192,29044,1,0,0:0:0:0:
96,192,29044,1,2,0:0:0:0:
160,192,29419,1,0,0:0:0:0:
352,192,29794,1,0,0:0:0:0:
480,192,30169,1,0,0:0:0:0:
416,192,30544,1,0,0:0:0:0:
288,192,30919,1,0,0:0:0:0:
480,192,31294,1,0,0:0:0:0:
352,192,31294,1,2,0:0:0:0:
96,192,31669,1,0,0:0:0:0:
416,192,31669,1,0,0:0:0:0:
352,192,32044,1,2,0:0:0:0:
32,192,32044,1,0,0:0:0:0:
224,192,32044,1,0,0:0:0:0:
160,192,32419,1,0,0:0:0:0:
288,192,32419,1,0,0:0:0:0:
416,192,32794,1,0,0:0:0:0:
288,192,33169,1,0,0:0:0:0:
480,192,33544,1,0,0:0:0:0:
416,192,33919,1,2,0:0:0:0:
224,192,33919,1,0,0:0:0:0:
288,192,34294,1,2,0:0:0:0:
480,192,34294,1,0,0:0:0:0:
416,192,34669,1,0,0:0:0:0:
160,192,34669,1,0,0:0:0:0:
352,192,35044,1,2,0:0:0:0:
480,192,35044,1,0,0:0:0:0:
32,192,35044,1,0,0:0:0:0:
224,192,35419,1,0,0:0:0:0:
416,192,35794,1,0,0:0:0:0:
352,192,36169,1,0,0:0:0:0:
480,192,36544,1,2,0:0:0:0:
416,192,36919,1,0,0:0:0:0:
352,192,37294,1,0,0:0:0:0:
224,192,37669,1,0,0:0:0:0:
416,192,38044,1,2,0:0:0:0:
32,192,38044,1,0,0:0:0:0:
160,192,38419,1,0,0:0:0:0:
416,192,38794,1,0,0:0:0:0:
352,192,39169,1,0,0:0:0:0:
480,192,39544,1,2,0:0:0:0:
416,192,39919,1,0,0:0:0:0:
352,192,40294,1,0,0:0:0:0:
224,192,40669,1,0,0:0:0:0:
32,192,41044,1,0,0:0:0:0:
416,192,41044,1,2,0:0:0:0:
480,192,41044,1,0,0:0:0:0:
224,192,41419,1,0,0:0:0:0:
160,192,41606,1,2,0:0:0:0:
416,192,41794,1,0,0:0:0:0:
352,192,42169,1,2,0:0:0:0:
288,192,42169,1,0,0:0:0:0:
416,192,42544,1,2,0:0:0:0:
480,192,42544,1,0,0:0:0:0:
416,192,42919,1,0,0:0:0:0:
352,192,43294,1,0,0:0:0:0:
224,192,43669,1,0,0:0:0:0:
32,192,44044,1,2,0:0:0:0:
416,192,44044,1,0,0:0:0:0:
160,192,44419,1,0,0:0:0:0:
416,192,44794,1,0,0:0:0:0:
352,192,45169,1,0,0:0:0:0:
224,192,45169,1,2,0:0:0:0:
480,192,45544,1,2,0:0:0:0:
160,192,45544,1,0,0:0:0:0:
416,192,45919,1,0,0:0:0:0:
96,192,45919,1,0,0:0:0:0:
352,192,46294,1,0,0:0:0:0:
32,192,46294,1,2,0:0:0:0:
224,192,46669,1,0,0:0:0:0:
96,192,47044,1,0,0:0:0:0:
480,192,47044,1,2,0:0:0:0:
288,192,47419,1,0,0:0:0:0:
416,192,47794,1,0,0:0:0:0:
352,192,48169,1,2,0:0:0:0:
480,192,48169,1,0,0:0:0:0:
288,192,48544,1,2,0:0:0:0:
416,192,48544,1,0,0:0:0:0:
160,192,48919,1,0,0:0:0:0:
352,192,48919,1,0,0:0:0:0:
224,192,49294,1,0,0:0:0:0:
288,192,49294,1,2,0:0:0:0:
96,192,49669,1,0,0:0:0:0:
352,192,50044,1,2,0:0:0:0:
480,192,50044,1,0,0:0:0:0:
32,192,50044,1,0,0:0:0:0:
160,192,50419,1,0,0:0:0:0:
288,192,50794,1,0,0:0:0:0:
160,192,51169,1,0,0:0:0:0:
416,192,51169,1,2,0:0:0:0:
480,192,51356,1,0,0:0:0:0:
352,192,51544,1,2,0:0:0:0:
480,192,51544,1,0,0:0:0:0:
288,192,51919,1,0,0:0:0:0:
416,192,52106,1,2,0:0:0:0:
224,192,52294,1,0,0:0:0:0:
160,192,52669,1,2,0:0:0:0:
352,192,52669,1,0,0:0:0:0:
32,192,53044,1,0,0:0:0:0:
288,192,53044,1,2,0:0:0:0:
480,192,53044,1,0,0:0:0:0:
224,192,53419,1,0,0:0:0:0:
416,192,53794,1,0,0:0:0:0:
352,192,54169,1,0,0:0:0:0:
480,192,54544,1,2,0:0:0:0:
416,192,54919,1,0,0:0:0:0:
352,192,55294,1,0,0:0:0:0:
224,192,55669,1,0,0:0:0:0:
32,192,56044,1,0,0:0:0:0:
416,192,56044,1,0,0:0:0:0:
288,192,56044,1,2,0:0:0:0:
96,192,56419,1,0,0:0:0:0:
160,192,56794,1,0,0:0:0:0:
96,192,57169,1,0,0:0:0:0:
224,192,57544,1,2,0:0:0:0:
160,192,57919,1,0,0:0:0:0:
96,192,58294,1,0,0:0:0:0:
32,192,58669,1,0,0:0:0:0:
352,192,59044,1,0,0:0:0:0:
224,192,59044,1,2,0:0:0:0:
96,192,59044,1,0,0:0:0:0:
288,192,59419,1,0,0:0:0:0:
416,192,59794,1,2,0:0:0:0:
352,192,60169,1,0,0:0:0:0:
480,192,60544,1,2,0:0:0:0:
416,192,60919,1,0,0:0:0:0:
352,192,61294,1,2,0:0:0:0:
224,192,61669,1,0,0:0:0:0:
416,192,62044,1,2,0:0:0:0:
32,192,62044,1,0,0:0:0:0:
160,192,62419,1,0,0:0:0:0:
416,192,62794,1,2,0:0:0:0:
352,192,63169,1,0,0:0:0:0:
480,192,63544,1,2,0:0:0:0:
416,192,63919,1,0,0:0:0:0:
352,192,64294,1,2,0:0:0:0:
224,192,64669,1,0,0:0:0:0:
96,192,65044,1,2,0:0:0:0:
352,192,66764,1,2,0:0:0:0:
480,192,66764,1,0,0:0:0:0:
160,192,68764,1,0,0:0:0:0:
288,192,68764,1,0,0:0:0:0:
416,192,68764,1,2,0:0:0:0:
